Win32Soft.Org — Софт, музыка, игры, сиськи и многое другое ;)  
Авторизация
Логин:
Пароль:

Регистрация | Забыл пароль?
 
Меню
Реклама
 
Поиск
Расширенный поиск
 
Промо
 
Друзья
 
Архивный указатель
Октябрь 2018 (202)
Сентябрь 2018 (136)
Август 2018 (67)
Июль 2018 (110)
Июнь 2018 (155)
Май 2018 (228)
 
Новости сайта
Сразу после сотворения мира (1-4 серии из 4) (2013  / 480*320)
Сразу после сотворения мира (1-4 серии из 4) (2013  / 480*320)

По одноименному роману Татьяны Устиновой.
Мир Алексея Плетнева рухнул в одночасье. С изменой молодой жены все потеряло смысл.Ни любимое дело, ни друзья, ни более чем солидное благосостояние - ничто не могло вернуть его к жизни.
И вот в день своего сорокалетия Алексей сбегает в Остров - заброшенную деревушку, где когда-то купил себе дом.
Кажется, что здесь его ждут мир и покой. Однако заброшенный уголок оказался вовсе не райским

Название: Сразу после сотворения мира
Год выхода: 2013 
Жанр: детектив
Режиссер: Александр Даруга
В ролях: Андрей Чернышов, Серафима Низовская, Ия Нинидзе, Дмитрий Суржиков, Ирина Климова, Ольга Нефедова, Николай Шульга и др.
Серия: 1-4 серии из 4

Формат: mpg
Качество: 480*320
Видео: Идентификатор : 1
Формат : AVC
Параметр ReFrames формата : 1 кадр
Идентификатор кодека : avc1
Идентификатор кодека/Информация : Advanced Video Coding
Продолжительность : 51 м.
Битрейт : 461 Кбит/сек
Ширина : 480 пикселей
Высота : 320 пикселей
Соотношение сторон : 16:9
Режим частоты кадров : Постоянный
Частота кадров : 30,000 кадров/сек
Цветовое пространство : YUV
Субдискретизация насыщенности : 4:2:0
Битовая глубина : 8 бит
Тип развёртки : Прогрессивная
Бит/(Пиксели*Кадры) : 0.100
Размер потока : 170 Мбайт (78%)
Аудио: Идентификатор : 2
Формат : AAC
Формат/Информация : Advanced Audio Codec
Профиль формата : LC
Идентификатор кодека : 40
Продолжительность : 51 м.
Вид битрейта : Переменный
Битрейт : 128 Кбит/сек
Каналы : 2 канала
Расположение каналов : Front: L R
Частота : 44,1 КГц
Метод сжатия : С потерями
Размер потока : 47,2 Мбайт (22%)

Язык: Русский
Продолжительность: 4 ~ 00:45:00
Размер: 219 Мб + 224 Мб + 233 Мб + 224 Мб

Сразу после сотворения мира (1-4 серии из 4) (2013  / 480*320) Сразу после сотворения мира (1-4 серии из 4) (2013  / 480*320) Сразу после сотворения мира (1-4 серии из 4) (2013  / 480*320)
Сразу после сотворения мира (1-4 серии из 4) (2013  / 480*320)


Скачать 1-ю серию



Скачать 2-ю серию



Скачать 3-ю серию



Скачать 4-ю серию


Автор: didl3 27-09-2014, 16:47 Каменты (0)

Может быть ты искал это?
© Win32soft.org, 2005 - 2011
Календарь
«    Сентябрь 2014    »
ПнВтСрЧтПтСбВс
1234567
891011121314
15161718192021
22232425262728
2930 
 
Промо
 
Счетчики
SpyLOG
Rambler''s Top100